#TITLE:BbriBbom BbreBbom;
#SUBTITLE:Expi3nze;
#ARTIST:Co-Ed;
#TITLETRANSLIT:;
#SUBTITLETRANSLIT:;
#ARTISTTRANSLIT:;
#CREDIT:;
#BANNER:bn.png;
#BACKGROUND:bg.png;
#LYRICSPATH:;
#CDTITLE:cdtitle.png;
#MUSIC:Co-ed.mp3;
#OFFSET:-0.160;
#SAMPLESTART:14.616;
#SAMPLELENGTH:27.597;
#SELECTABLE:YES;
#BPMS:0.000=136.964,1.000=136.957,2.000=136.971,2.500=68.485,2.750=136.985,3.000=136.957,4.250=68.485,4.500=136.971,5.000=136.957,6.000=68.485,6.250=136.966,7.000=136.957,7.750=68.485,8.000=136.964,9.000=136.957,9.500=68.485,9.750=136.985,10.000=136.957,11.250=68.485,11.500=136.971,12.000=136.957,13.000=68.485,13.250=136.966,14.000=136.957,14.750=68.485,15.000=136.964,16.000=136.957,16.500=68.485,16.750=136.985,17.000=136.957,18.250=68.485,18.500=136.971,19.000=136.957,20.000=68.485,20.250=136.966,21.000=136.957,21.750=68.485,22.000=136.964,23.000=136.957,23.500=68.485,23.750=136.985,24.000=136.957,25.250=68.485,25.500=136.971,26.000=136.957,27.000=68.482,27.500=136.971,28.000=68.484,28.333=273.956,29.000=68.489,29.167=273.998,29.500=68.489,29.667=273.998,30.000=68.489,30.167=273.998,30.500=68.489,30.667=273.998,31.000=68.489,31.167=273.998,31.500=68.489,31.667=273.998,32.000=68.489,32.167=273.998,32.500=68.489,32.667=273.998,33.000=68.489,33.167=273.998,33.500=68.489,33.667=273.998,34.000=68.484,34.333=273.956,35.000=68.484,35.333=273.956,36.000=136.964,37.000=68.489,37.167=273.998,37.500=68.489,37.667=273.998,38.000=68.489,38.167=273.998,38.500=68.489,38.667=273.998,39.000=68.489,39.167=273.998,39.500=68.489,39.667=273.998,40.000=136.964,41.000=136.957,41.500=273.998,41.833=68.489,42.000=136.964,43.000=68.484,43.333=273.956,44.000=136.964,45.000=68.489,45.167=273.998,45.500=68.489,45.667=273.998,46.000=68.489,46.167=273.998,46.500=68.489,46.667=273.998,47.000=68.489,47.167=273.998,47.500=68.489,47.667=273.998,48.000=68.489,48.167=273.998,48.500=68.489,48.667=273.998,49.000=68.489,49.167=273.998,49.500=68.489,49.667=273.998,50.000=68.484,50.333=273.956,51.000=68.484,51.333=273.956,52.000=136.964,53.000=68.489,53.167=273.998,53.500=68.489,53.667=273.998,54.000=68.489,54.167=273.998,54.500=68.489,54.667=273.998,55.000=68.489,55.167=273.998,55.500=68.489,55.667=273.998,56.000=136.964,57.000=136.957,57.500=273.998,57.833=68.489,58.000=136.964,59.000=136.957,59.500=273.998,59.833=68.489,60.000=136.964,61.000=68.484,61.333=273.956,62.000=68.484,62.333=273.956,63.000=136.964,64.000=136.957,65.000=136.964,66.000=136.957,67.000=136.964,68.000=136.957,69.000=68.484,69.333=273.956,70.000=68.484,70.333=273.956,71.000=136.964,72.000=136.957,73.000=136.964,74.000=136.957,75.000=136.964,76.000=136.957,77.000=68.484,77.333=273.956,78.000=68.484,78.333=273.956,79.000=136.964,80.000=136.957,81.000=136.964,82.000=136.957,83.000=136.964,84.000=136.957,85.000=68.484,85.333=273.956,86.000=68.484,86.333=273.956,87.000=136.964,88.000=136.957,89.000=136.971,89.500=273.913,89.750=68.492,89.875=136.957,90.000=136.964,91.000=136.957,91.500=273.913,91.750=68.492,91.875=136.957,92.000=136.964,93.000=136.957,94.000=136.971,94.500=68.485,94.750=136.985,95.000=136.957,96.250=68.485,96.500=136.971,97.000=136.957,98.000=68.485,98.250=136.966,99.000=136.957,99.750=68.485,100.000=136.964,101.000=136.957,101.500=68.485,101.750=136.985,102.000=136.957,103.250=68.485,103.500=136.971,104.000=136.957,105.000=68.485,105.250=136.966,106.000=136.957,106.750=68.485,107.000=136.964,108.000=136.957,109.000=136.964,110.000=136.957,111.000=136.964,112.000=136.957,113.000=136.964,114.000=136.957,115.000=136.964,116.000=136.957,117.000=136.964,118.000=136.957,119.000=136.964,120.000=136.957,121.000=136.964,122.000=273.913,122.500=68.485,122.750=136.957,123.000=136.964,124.000=273.913,124.250=68.478,124.375=136.968,125.000=136.957,126.000=273.913,126.250=68.478,126.375=136.968,127.000=136.957,128.000=273.913,128.250=68.478,128.375=136.968,129.000=136.957,130.000=273.913,130.250=68.478,130.375=136.968,131.000=136.957,132.000=273.913,132.250=68.478,132.375=136.968,133.000=136.957,134.000=273.913,134.250=68.478,134.375=136.968,135.000=136.957,135.500=273.913,135.750=68.478,135.875=136.957,136.000=136.964,137.000=68.484,137.333=273.956,138.000=68.484,138.333=273.956,139.000=136.964,140.000=273.913,140.250=68.478,140.375=136.968,141.000=136.957,142.000=273.913,142.250=68.478,142.375=136.968,143.000=136.957,144.000=273.913,144.250=68.478,144.375=136.968,145.000=136.957,146.000=273.913,146.250=68.478,146.375=136.968,147.000=136.957,148.000=273.913,148.250=68.478,148.375=136.968,149.000=136.957,150.000=273.913,150.250=68.478,150.375=136.968,151.000=136.957,152.500=68.485,152.750=136.957,153.000=136.964,154.000=136.957,154.250=68.485,154.500=136.971,155.000=136.957,156.000=68.485,156.250=136.966,157.000=136.957,157.750=68.485,158.000=136.964,159.000=136.957,159.500=68.485,159.750=136.957,160.000=136.964,161.000=136.957,161.250=68.485,161.500=136.971,162.000=136.957,163.000=68.485,163.250=136.966,164.000=136.957,164.750=68.485,165.000=136.964,166.000=136.957,166.500=68.485,166.750=136.957,167.000=136.964,168.000=136.957,169.000=136.964,170.000=136.957,170.250=68.485,170.500=136.971,171.000=136.957,172.000=68.485,172.250=136.966,173.000=136.957,173.750=68.485,174.000=136.964,175.000=136.957,176.000=136.964,177.000=136.957,178.000=136.964,179.000=136.957,180.000=136.964,181.000=136.957,182.000=136.964,183.000=136.957,184.000=136.964,185.000=136.957,186.000=136.964,187.000=68.484,187.333=273.956,188.000=68.489,188.167=273.913,188.500=68.489,188.667=273.913,189.000=68.489,189.167=273.913,189.500=68.489,189.667=273.913,190.000=68.489,190.167=273.913,190.500=68.489,190.667=273.913,191.000=68.489,191.167=273.913,191.500=68.489,191.667=273.913,192.000=68.489,192.167=273.913,192.500=68.489,192.667=273.913,193.000=68.484,193.333=273.956,194.000=68.484,194.333=273.956,195.000=136.964,196.000=68.489,196.167=273.913,196.500=68.489,196.667=273.913,197.000=68.489,197.167=273.913,197.500=68.489,197.667=273.913,198.000=68.489,198.167=273.913,198.500=68.489,198.667=273.913,199.000=136.964,200.000=136.957,200.500=273.913,200.833=68.489,201.000=136.964,202.000=68.484,202.333=273.956,203.000=136.964,204.000=68.489,204.167=273.913,204.500=68.489,204.667=273.913,205.000=68.489,205.167=273.913,205.500=68.489,205.667=273.913,206.000=68.489,206.167=273.913,206.500=68.489,206.667=273.913,207.000=68.489,207.167=273.913,207.500=68.478,207.667=273.913,208.000=68.478,208.167=273.913,208.500=68.478,208.667=273.913,209.000=68.484,209.333=273.913,210.000=68.484,210.333=273.913,211.000=136.964,212.000=68.478,212.167=273.913,212.500=68.478,212.667=273.913,213.000=68.478,213.167=273.913,213.500=68.478,213.667=273.913,214.000=68.478,214.167=273.913,214.500=68.478,214.667=273.913,215.000=136.964,216.000=136.957,216.500=273.913,216.833=68.478,217.000=136.964,218.000=136.957,218.500=273.913,218.833=68.478,219.000=136.964,220.000=68.484,220.333=273.913,221.000=68.484,221.333=273.913,222.000=136.964,223.000=136.957,224.000=136.964,225.000=136.957,226.000=136.964,227.000=136.957,228.000=68.484,228.333=273.913,229.000=68.484,229.333=273.913,230.000=136.964,231.000=136.957,232.000=136.964,233.000=136.957,234.000=136.964,235.000=136.957,236.000=68.484,236.333=273.913,237.000=68.484,237.333=273.913,238.000=136.964,239.000=136.957,240.000=136.964,241.000=136.957,242.000=136.964,243.000=136.957,244.000=68.484,244.333=273.913,245.000=68.484,245.333=273.913,246.000=136.964,247.000=136.957,248.500=273.913,248.833=68.478,249.000=136.964,250.000=136.957,250.500=273.913,250.833=68.478,251.000=136.964,252.000=136.957,253.000=136.964,254.000=136.957,255.000=136.964,256.000=136.957,257.000=136.964,258.000=136.957,259.000=136.964;
#STOPS:;
#BGCHANGES:;
// cache tags:
#FIRSTBEAT:1.000;
#LASTBEAT:256.000;
#SONGFILENAME:Songs/Super Dancer Online/Bbiribbom-Bberibbom/Co-ed.sm;
#HASMUSIC:1;
#HASBANNER:1;
#MUSICLENGTH:118.024;
// end cache tags

//---------------dance-single - ----------------
#NOTES:
     dance-single:
     :
     Hard:
     12:
     0.921,1.000,1.000,0.169,0.674,541.000,193.000,20.000,0.000,17.000:
0000
0000
0000
0000
0001
0000
0010
0001
0100
0000
1000
0001
0000
0010
0001
0100
,
0000
1000
0001
0000
0010
0001
0100
0000
1000
0001
0000
0010
0001
0100
0000
1000
,
0001
0000
0010
0001
0100
0000
1000
0001
0000
0010
0001
0100
0000
1000
0001
0000
,
0010
0001
0100
0000
1000
0001
0000
0010
0001
0100
0000
0001
1100
0000
0010
0001
,
0100
0000
1000
0001
0000
0010
0001
0100
0000
1000
0001
0000
0010
0001
0100
0000
,
1000
0001
0000
0010
0001
0100
0000
1000
0001
0000
0010
0001
0100
0000
1000
0001
,
0000
0010
0001
0100
0000
1000
0001
0000
0010
0001
0100
0000
0010
0020
0000
0030
,
0020
0000
1130
1001
0011
1100
0101
0011
,
1001
0000
1100
0000
1001
0000
0011
0000
2100
0000
0000
3000
2000
0000
0000
0000
,
3011
0000
0011
1001
1100
1001
0011
1001
,
1001
0000
0010
0100
0001
0000
0011
0000
1001
0000
0000
0000
0100
0000
0000
0000
,
1101
0000
1100
1001
0011
1100
0101
0011
,
1001
0000
1100
0000
1001
0000
0011
0000
2100
0000
0000
3000
2000
0000
0000
0000
,
3011
0000
0011
1001
1100
1001
0011
1001
,
1001
0000
0010
0100
0001
0000
0011
0000
1001
0000
0000
0000
0000
0000
1100
0000
,
1100
0011
1001
0011
,
1000
0000
1010
0000
0000
0000
0011
0000
1001
0000
0100
0010
0001
0000
1100
0000
,
1100
0001
0101
0000
0101
0000
1100
0000
,
0001
0000
0011
0000
0000
0000
0110
0000
0011
0000
1000
0100
0010
0000
0101
0000
,
1100
0010
0101
0000
1001
0000
0011
0000
,
0100
0000
0011
0000
0000
0000
0110
0000
0011
0000
1000
0010
0100
0000
0011
0000
,
0110
1000
0011
0000
1010
0000
1010
0000
,
0001
1001
0000
1100
1100
0000
0000
0011
,
1001
0000
0000
0000
0001
0000
0010
0001
0100
0000
1000
0001
0000
0010
0001
0100
,
0000
1000
0001
0000
0010
0001
0100
0000
1000
0001
0000
0010
0001
0100
0000
1000
,
0001
0000
0010
0001
0100
0000
1000
0001
0000
0010
0001
0100
0000
1000
0001
0000
,
0010
0001
0100
0000
1000
0001
0000
0010
0001
0100
0000
1000
0001
0000
0010
0001
,
1100
0000
0010
0000
0001
0000
0010
0001
1100
0000
0010
0000
0001
0000
0010
0001
,
1100
0000
0010
0000
0001
0000
0010
0001
1100
0000
0010
0000
0001
0000
0010
0001
,
1100
0000
0010
0000
0001
0000
0010
0001
1100
0000
0010
0000
2000
0000
0000
0000
,
0010
0000
0000
0000
0010
0000
0000
0000
0110
0000
0000
0000
3011
1000
0011
1000
,
0100
0010
0001
0100
0011
1000
0011
1000
0100
0010
0001
0100
0011
1000
0011
1000
,
0100
0010
0001
0100
0011
1000
0011
1000
0100
0010
0001
0100
0011
1000
0011
1000
,
0100
0010
0001
0100
0011
1000
0011
1000
0100
0010
0001
0100
0011
0000
1110
0000
,
1101
0000
0010
0100
0002
0000
0000
0000
0213
0000
0000
0000
0311
1000
0011
1000
,
0100
0010
0001
0100
0011
1000
0011
1000
0100
0010
0001
0100
0011
1000
0011
1000
,
0100
0010
0001
0100
0011
1000
0011
1000
0100
0010
0001
0100
0011
1000
0011
1000
,
0100
0010
0001
0100
0011
1000
0011
1000
0100
0010
0001
0100
0001
0000
0010
0001
,
0100
0000
1000
0001
0000
0010
0001
0100
0000
1000
0001
0000
0010
0001
0100
0000
,
1000
0001
0000
0010
0001
0100
0000
1000
0001
0000
0010
0001
0100
0000
1000
0001
,
0000
0010
0001
0100
0000
1000
0001
0000
0010
0001
0100
0000
1000
0001
0000
0010
,
0001
0100
0000
1000
0001
0000
0010
0001
0100
0000
1000
0001
0000
0010
0001
0100
,
0000
0010
0000
1101
0000
0010
0001
0100
0000
1000
0001
0000
0010
0001
0100
0000
,
1000
0001
0000
0010
0001
0100
0000
1000
0001
0000
0010
0001
0100
0000
0010
0000
,
2001
0000
0010
0001
0100
0000
0010
0000
0001
0000
0010
0001
0100
0000
0010
0000
,
0200
0000
0000
0000
,
3320
0000
0000
0000
,
1130
1001
0011
1100
0101
0011
1001
1100
,
1001
0000
0011
0000
2100
0000
0000
3000
2000
0000
0000
0000
3011
0000
0000
0000
,
0011
0000
1001
0000
1100
0000
1001
0000
0011
0000
1001
0000
1001
0000
0010
0100
,
0001
0011
1001
0000
0100
0000
1101
0000
,
1100
1001
0011
1100
0101
0011
1001
1100
,
1001
0000
0011
0000
2100
0000
0000
3000
2000
0000
0000
0000
3011
0000
0000
0000
,
0011
0000
1001
0000
1100
0000
1001
0000
0011
0000
1001
0000
1001
0000
0010
0100
,
0001
0011
1001
0000
0000
1100
1100
0000
,
0011
0000
1001
0000
0011
0000
1000
1010
,
0000
0000
0011
0000
1001
0000
0100
0010
0001
0000
1100
0000
1100
0000
0001
0000
,
0101
0000
0101
0000
1100
0000
0001
0011
,
0000
0000
0110
0000
0011
0000
1000
0100
0010
0000
0101
0000
1100
0000
0010
0000
,
0101
0000
1001
0000
0011
0000
0100
0011
,
0000
0000
0110
0000
0011
0000
1000
0010
0100
0000
0011
0000
0110
0000
1000
0000
,
0011
0000
1010
0000
1010
0000
0001
1001
,
0000
1100
1100
0000
0000
0011
1001
0000
,
2222
0000
0000
0000
,
3333
0000
0000
0000
;
